DNS SERVER ÄNDERN, um der staatlichen Zensur zu entgehen. Sollten wir von eurem Provider gesperrt werden, nutzt den TOR BROWSER oder ändert euren DNS SERVER.

Filmwünsche können bei uns im Forum abgegeben werden

Wir Speichern Nicht




 
 
 
Top Releases
Mile.22.2018.German.DL.1080p...
Mile.22.2018.German.720p.Blu...
Reign.of.the.Supermen.2019.M...
Upgrade.2018.German.DL.1080p...
Upgrade.2018.German.720p.Blu...
Upgrade.2018.MULTI.COMPLETE....
Durch.die.Wand.The.Dawn.Wall...
Forever.My.Girl.2018.DUAL.CO...
Forever.My.Girl.German.DL.10...
Forever.My.Girl.German.720p....

Cinedubs
Widows.Toedliche.Witwen.2018...
Widows.Toedliche.Witwen.2018...
Bohemian.Rhapsody.2018.GERMA...
Bohemian.Rhapsody.2018.GERMA...
Robin.Hood.2018.German.DL.AC...
Robin.Hood.2018.German.DL.AC...
Bumblebee.2018.German.DL.AC3...
Bumblebee.2018.German.DL.AC3...
Der.Nussknacker.und.die.vier...
Dont.Worry.weglaufen.geht.ni...

Neuerscheinungen 2018-19
Superfly.German.720p.BluRay....
Superfly.German.DL.1080p.Blu...
Gaston.Katastrophen.am.laufe...
Gaston.Katastrophen.am.laufe...
Dog.Days.2018.German.DL.1080...
Dog.Days.2018.German.720p.Bl...
Enemy.Mine.1985.DUAL.COMPLET...
Der.Weg.nach.El.Dorado.2000....
Der.Weg.nach.El.Dorado.2000....
Gott.ist.nicht.tot.Ein.Licht...

XXX
The.House.Of.Sin.2014.XXX.72...
Trouble.X.2.2016.XXX.720p.HD...
Value.10.Real.Massive.Racks....
White.18.Yo.Mistresses.For.B...
Desperate.Lesbian.Wives.XXX....
Epic.Lesbian.Orgasms.2016.XX...
Kinky.Erotic.Suckjobs.XXX.HD...
Lesbian.Tongue.Massage.XXX.H...
MomPov.E450.Pheobe.XXX.1080p...
DadCrush.19.01.13.Vanna.Bard...
PornMegaLoad.19.01.11.Lexi.S...
LadyVoyeurs.19.01.09.Brook.L...
BBW.Butt.Crushers.XXX.1080p....
GirlsGonePink.19.01.13.Katan...
ReadyOrNotHereICum.19.01.12....
TeensLikeItBig.19.01.09.Gia....
Passion-HD.19.01.09.Emma.Sta...
Shoplyfter.19.01.09.Aryana.A...
Fuck.Me.Furious.3.XXX.1080p....
RoccoSiffredi.19.01.12.Candy...

3D
Die.Reise.zum.Mittelpunkt.de...
Die.Reise.zum.Mittelpunkt.de...
Die.Reise.zum.Mittelpunkt.de...
Kaluoka.Hina.Das.Zauberriff....
Blade.Runner.2049.3D.2017.Ge...
Walhalla.Rising.3D.2009.DUAL...
Sleepwalker.3D.2011.DUAL.COM...
Bis.an.die.Grenzen.des.Unive...
Best.of.3D.vol.13.-.15.GERMA...
Limbradur.und.die.Magie.der....
Kaluoka.Hina.Das.Zauberriff....
Limbradur.und.die.Magie.der....
Smallfoot.3D.2018.COMPLETE.B...
Smallfoot.Ein.eisigartiges.A...
Skyscraper.3D.2018.German.DL...

Old_Stuff
Ip.Man.2.2010.German.DTS.108...
Todfreunde.aka.Bad.Influence...
Animatrix.2003.German.DL.108...
Animatrix.2003.German.DL.720...
Akte.X.S06.German.DTS.DL.108...
The.Beauty.of.Gemina.Minor.S...
ZZ.Top.Live.from.Texas.2008....
Peter.Hase.2018.German.DL.10...
Akte.X.S05.German.DTS.DL.108...
Akte.X.S04.German.DTS.DL.108...
Akte.X.S03.German.DTS.DL.108...
Dunkirk.1958.COMPLETE.BLURAY...
Das.Wunder.von.Manhattan.199...
The.Amazing.Spiderman.2.Rise...
Rise.of.the.Predator.2014.Ge...

Filme
Mord.ohne.Auftrag.2006.Germa...
Brothers.Justice.2010.German...
Baby.Mama.2008.German.AC3D.D...
Die.Spur.des.Falken.1941.Ger...
Breaking.In.2018.German.DL.1...
Waterworld.Arrow.Ulysses.Cut...
Hubi.der.Pinguin.1995.German...
Hubi.der.Pinguin.1995.German...
Halloween.Night.Satan.lebt.1...
S.W.A.T.2017.S02.German.DD51...
S.W.A.T.2017.S02.German.DD51...
Tierische.Gauner.Wer.ueberle...
Tierische.Gauner.Wer.ueberle...
The.Big.Bang.Theory.S12.Germ...
The.Big.Bang.Theory.S12.Germ...
Das.Geheimarchiv.im.Warschau...
Carter.S01.GERMAN.DL.1080p.H...
Vater.werden.ist.nicht.schwe...
Ein.Hauptgewinn.fuer.Papa.20...
Dogman.2018.German.AC3.5.1.D...
Zu.zweit.ist.es.leichter.200...
Der.Tote.am.Teich.2015.GERMA...
Koenig.Laurin.2016.GERMAN.72...
Forever.My.Girl.2018.German....

 
 
Aquaman.2018.GERMAN.AC3.MD.720p.TS.x264-CARTEL

Jahr: 2018
Genre: Action, Fantasy
Sprache: Deutsch AC3
Laufzeit: 2h 11mn
Bitrate: 3 193 Kbps
Format: MKV
Größe: 2.94 GiB
Release:

Beschreibung:

Aquaman (Jason Momoa), der mit bürgerlichem Namen Arthur Curry heißt, ist als Sohn seines menschlichen Vaters Tom Curry (Temuera Morrison) und seiner atlantischen Mutter Atlanna (Nicole Kidman) berechtigt, den Thron von Atlantis zu besteigen. Doch aktuell regiert sein Halbbruder Orm (Patrick Wilson) das Unterwasserkönigreich und dieser möchte auch die anderen sechs Königreiche der Meere um sich scharen, um gemeinsam einen Krieg gegen die Menschen an der Erdoberfläche zu führen, die seit vielen Jahren die Ozeane verschmutzen. Gemeinsam mit Mera (Amber Heard) macht sich Aquaman auf die Suche nach dem Dreizack des ersten Königs von Atlantis, der seinen Anspruch auf den Thron untermauern würde. Doch das kann Orm nicht zulassen und so hetzt er den beiden den Piraten David Kane alias Black Manta (Yahya Abdul-Mateen II) auf den Hals, der mit Aquaman noch eine Rechnung zu begleichen hat…

 

Mic+TeleSYNC



Complete name                            : cartel-aqua-720.mkv
Format                                   : Matroska
Format version                           : Version 4 / Version 2
File size                                : 2.94 GiB
Duration                                 : 2h 11mn
Overall bit rate                         : 3 193 Kbps
Encoded date                             : UTC 2018-12-20 16:33:38
Writing application                      : mkvmerge v7.8.0 ('River Man') 64bit built on Mar 27 2015 16:31:37
Writing library                          : libebml v1.3.1 + libmatroska v1.4.2
_STATISTICS_WRITING_APP                  : mkvmerge v7.8.0 ('River Man') 64bit built on Mar 27 2015 16:31:37
_STATISTICS_WRITING_DATE_UTC             : 2018-12-20 16:33:38
_STATISTICS_TAGS                         : BPS DURATION NUMBER_OF_FRAMES NUMBER_OF_BYTES
DURATION                                 : 02:11:52.576000000
NUMBER_OF_FRAMES                         : 247268
NUMBER_OF_BYTES                          : 189901824

Video
ID                                       : 1
Format                                   : AVC
Format/Info                              : Advanced Video Codec
Format profile                           : High@L4.1
Format settings, CABAC                   : Yes
Format settings, ReFrames                : 4 frames
Codec ID                                 : V_MPEG4/ISO/AVC
Duration                                 : 2h 11mn
Bit rate                                 : 3 000 Kbps
Width                                    : 1 280 pixels
Height                                   : 544 pixels
Display aspect ratio                     : 2.35:1
Frame rate mode                          : Constant
Frame rate                               : 24.000 fps
Color space                              : YUV
Chroma subsampling                       : 4:2:0
Bit depth                                : 8 bits
Scan type                                : Progressive
Bits/(Pixel*Frame)                       : 0.180
Stream size                              : 2.71 GiB (92%)
Writing library                          : x264 core 148 r2638 7599210
Encoding settings                        : cabac=1 / ref=3 / deblock=1:0:0 / analyse=0x3:0x113 / me=hex / subme=7 / psy=1 / psy_rd=1.00:0.00 / mixed_ref=1 / me_range=16 / chroma_me=1 / trellis=1 / 8x8dct=1 / cqm=0 / deadzone=21,11 / fast_pskip=1 / chroma_qp_offset=-2 / threads=12 / lookahead_threads=2 / sliced_threads=0 / nr=0 / decimate=1 / interlaced=0 / bluray_compat=0 / constrained_intra=0 / bframes=3 / b_pyramid=2 / b_adapt=1 / b_bias=0 / direct=1 / weightb=1 / open_gop=0 / weightp=2 / keyint=240 / keyint_min=24 / scenecut=40 / intra_refresh=0 / rc_lookahead=40 / rc=2pass / mbtree=1 / bitrate=3000 / ratetol=1.0 / qcomp=0.60 / qpmin=0 / qpmax=69 / qpstep=4 / cplxblur=20.0 / qblur=0.5 / vbv_maxrate=62500 / vbv_bufsize=78125 / nal_hrd=none / filler=0 / ip_ratio=1.40 / aq=1:1.00
Default                                  : Yes
Forced                                   : No

Audio
ID                                       : 2
Format                                   : AC-3
Format/Info                              : Audio Coding 3
Mode extension                           : CM (complete main)
Format settings, Endianness              : Big
Codec ID                                 : A_AC3
Duration                                 : 2h 11mn
Bit rate mode                            : Constant
Bit rate                                 : 192 Kbps
Channel(s)                               : 2 channels
Channel positions                        : Front: L R
Sampling rate                            : 48.0 KHz
Bit depth                                : 16 bits
Compression mode                         : Lossy
Stream size                              : 181 MiB (6%)
Default                                  : Yes
Forced                                   : No


Download:
Share Online Share OnlineShare OnlineShare Online
 

Kommentare