DNS SERVER ÄNDERN, um der staatlichen Zensur zu umgehen. Sollten wir von eurem Provider gesperrt werden, nutzt den TOR BROWSER oder ändert euren DNS SERVER.

Filmwünsche können bei uns im Forum abgegeben werden

Wir Speichern Nicht




 
 
 
Top Releases
Upgrade.2018.German.DL.1080p...
Upgrade.2018.German.720p.Blu...
Upgrade.2018.MULTI.COMPLETE....
Durch.die.Wand.The.Dawn.Wall...
Forever.My.Girl.2018.DUAL.CO...
Forever.My.Girl.German.DL.10...
Forever.My.Girl.German.720p....
LBJ.2016.German.AC3.DL.1080p...
American.Animals.2018.German...
Alpha.2018.German.AC3.DL.108...

Cinedubs
Bumblebee.2018.German.DL.AC3...
Bumblebee.2018.German.DL.AC3...
Der.Nussknacker.und.die.vier...
Dont.Worry.weglaufen.geht.ni...
Dont.Worry.weglaufen.geht.ni...
Gaensehaut.2.Gruseliges.Hall...
Aquaman.TS.LD.German.DL.720p...
Eho.Echo.German.720p.WEBRip....
Eho.Echo.German.1080p.WEBRip...
Bad.Times.at.the.El.Royale.2...

Neuerscheinungen 2018-19
Gott.ist.nicht.tot.Ein.Licht...
Narziss.und.Psyche.Narcissus...
Trauma.Das.Boese.verlangt.Lo...
Trauma.Das.Boese.verlangt.Lo...
Gott.ist.nicht.tot.Ein.Licht...
The.Domestics.2018.DUAL.COMP...
Trauma.Das.Boese.verlangt.Lo...
The.Domestics.German.DL.1080...
The.Domestics.German.720p.Bl...
IO.2019.German.DL.1080p.WEB....

XXX
Teenage.Bedroom.Secrets.4.XX...
Nerd.Pervert.Vol.38.XXX.1080...
CherryPimps.19.01.10.Elsa.Je...
FiLFExtra.E41.Kendall.Kayden...
FoxxedUp.19.01.09.Young.Mist...
FakeTaxi.19.01.13.Madison.Ph...
ATKGirlfriends.19.01.10.Emil...
MommyBlowsBest.19.01.09.Jasm...
MomXXX.19.01.10.Alyssa.Reece...
MomPov.E427.Amehlia.XXX.1080...
GirlsGoneWild.19.01.10.Valen...
ErotiqueTVLive.18.07.07.Jay....
BuccWild.18.05.27.Pregnant.E...
FiLFExtra.E38.Kiara.Knight.A...
MommyGotBoobs.19.01.12.Ava.A...
MomsLickTeens.19.01.09.Londo...
MatureNL.19.01.09.Gina.Feroc...
ThaiGirlsWild.18.12.31.Coco....
CreampieInAsia.19.01.11.Lany...
KarupsOW.19.01.07.Angelica.L...

3D
Blade.Runner.2049.3D.2017.Ge...
Walhalla.Rising.3D.2009.DUAL...
Sleepwalker.3D.2011.DUAL.COM...
Bis.an.die.Grenzen.des.Unive...
Best.of.3D.vol.13.-.15.GERMA...
Limbradur.und.die.Magie.der....
Kaluoka.Hina.Das.Zauberriff....
Limbradur.und.die.Magie.der....
Smallfoot.3D.2018.COMPLETE.B...
Smallfoot.Ein.eisigartiges.A...
Skyscraper.3D.2018.German.DL...
Meg.3D.2018.MULTi.COMPLETE.B...
Meg.3D.2018.German.DL.1080p....
Gans.im.Glueck.3D.2018.MULTi...
The.Art.of.Flight.3D.2011.Ge...

Old_Stuff
Todfreunde.aka.Bad.Influence...
Animatrix.2003.German.DL.108...
Animatrix.2003.German.DL.720...
Akte.X.S06.German.DTS.DL.108...
The.Beauty.of.Gemina.Minor.S...
ZZ.Top.Live.from.Texas.2008....
Peter.Hase.2018.German.DL.10...
Akte.X.S05.German.DTS.DL.108...
Akte.X.S04.German.DTS.DL.108...
Akte.X.S03.German.DTS.DL.108...
Dunkirk.1958.COMPLETE.BLURAY...
Das.Wunder.von.Manhattan.199...
The.Amazing.Spiderman.2.Rise...
Rise.of.the.Predator.2014.Ge...
Detective.Dee.und.das.Geheim...

Filme
Die.Schneekoenigin.2016.GERM...
Black.Book.2006.German.DL.AC...
Grosse.Haie.Kleine.Fische.20...
Sling.Blade.Auf.Messers.Schn...
Das.weisse.Zauberpferd.1992....
Das.weisse.Zauberpferd.1992....
Star.Trek.Discovery.S02.Germ...
Ray.Donovan.S06.GERMAN.DUBBE...
Ray.Donovan.S06.GERMAN.DUBBE...
Brennender.Hass.1989.GERMAN....
Brennender.Hass.1989.GERMAN....
Bugsy.1991.GERMAN.1080p.HDTV...
Bugsy.1991.GERMAN.720p.HDTV....
Gott.ist.nicht.tot.Ein.Licht...
Airforce.Two.2006.GERMAN.108...
Airforce.Two.2006.GERMAN.720...
Upgrade.2018.German.DL.1080p...
Ab.durch.die.Hecke.2006.Germ...
American.Animals.2018.German...
Battle.in.Seattle.2007.Germa...
The.Guilty.2018.German.DL.10...
Grace.und.Frankie.S05.COMPLE...
Paranoiac.Haus.des.Grauens.1...
ZDF.History.-.Damenwahl.Frau...

 
 
Der.gruene.Bogenschuetze.1961.German.720p.BluRay.x264-SPiCY

Jahr: 1961
Genre: Drama
Sprache: Deutsch DTS
Laufzeit: 1h 32mn
Bitrate: 5 049 Kbps
Format: MKV
Größe: 3.27 GiB
Release:

Beschreibung:

Eine geheimnisvolle Legende rankt sich um das alte Schloss Carre Castle. Angeblich versetzt ein Gespenst, der grüne Bogenschütze, die Bewohner in Angst und Schrecken. Der amerikanische Millionär Abel Bellamy lässt sich von dem Gerücht nicht beeindrucken, er kauft das Anwesen und zieht kurzerhand ein. Doch schon bald wird in Carre Castle ein Mann tot aufgefunden – ein grüner Pfeil steckt in seinem Rücken. Natürlich kann Inspektor Featherstone den Mord nicht mit einer Gespenster-Geschichte zu erklären und entschließt sich, seine Ermittlungen inkognito aufzunehmen: Er schlüpft in die Rolle des Hausmeisters. Im Schloss trifft er auf Bellamys hübsche Nichte Valerie, die einen mysteriösen Verdacht hegt: Angeblich hält der Schlossherr Valeries verschwundene Mutter gefangen



Complete name                            : spy-gruenebogenschuetze-720p.mkv
Format                                   : Matroska
Format version                           : Version 4 / Version 2
File size                                : 3.27 GiB
Duration                                 : 1h 32mn
Overall bit rate                         : 5 049 Kbps
Encoded date                             : UTC 2019-01-06 14:28:09
Writing application                      : mkvmerge v9.0.1 ('Obstacles') 64bit
Writing library                          : libebml v1.3.3 + libmatroska v1.4.4
DURATION                                 : 01:32:46.219000000
NUMBER_OF_FRAMES                         : 521833
NUMBER_OF_BYTES                          : 534356992
_STATISTICS_WRITING_APP                  : mkvmerge v9.0.1 ('Obstacles') 64bit
_STATISTICS_WRITING_DATE_UTC             : 2019-01-06 14:28:09
_STATISTICS_TAGS                         : BPS DURATION NUMBER_OF_FRAMES NUMBER_OF_BYTES

Video
ID                                       : 1
Format                                   : AVC
Format/Info                              : Advanced Video Codec
Format profile                           : High@L4.1
Format settings, CABAC                   : Yes
Format settings, ReFrames                : 5 frames
Codec ID                                 : V_MPEG4/ISO/AVC
Duration                                 : 1h 32mn
Bit rate                                 : 4 279 Kbps
Width                                    : 1 200 pixels
Height                                   : 720 pixels
Display aspect ratio                     : 1.667
Frame rate mode                          : Constant
Frame rate                               : 24.000 fps
Color space                              : YUV
Chroma subsampling                       : 4:2:0
Bit depth                                : 8 bits
Scan type                                : Progressive
Bits/(Pixel*Frame)                       : 0.206
Stream size                              : 2.71 GiB (83%)
Writing library                          : x264 core 157 r2935 545de2f
Encoding settings                        : cabac=1 / ref=5 / deblock=1:-1:-1 / analyse=0x3:0x113 / me=umh / subme=7 / psy=1 / psy_rd=1.00:0.00 / mixed_ref=1 / me_range=16 / chroma_me=1 / trellis=1 / 8x8dct=1 / cqm=0 / deadzone=21,11 / fast_pskip=0 / chroma_qp_offset=-2 / threads=22 / lookahead_threads=3 / sliced_threads=0 / nr=0 / decimate=1 / interlaced=0 / bluray_compat=0 / constrained_intra=0 / bframes=3 / b_pyramid=2 / b_adapt=1 / b_bias=0 / direct=3 / weightb=1 / open_gop=0 / weightp=2 / keyint=250 / keyint_min=24 / scenecut=40 / intra_refresh=0 / rc_lookahead=40 / rc=2pass / mbtree=1 / bitrate=4279 / ratetol=1.0 / qcomp=0.60 / qpmin=0 / qpmax=69 / qpstep=4 / cplxblur=20.0 / qblur=0.5 / ip_ratio=1.40 / aq=1:1.00
Default                                  : Yes
Forced                                   : No

Audio
ID                                       : 2
Format                                   : DTS
Format/Info                              : Digital Theater Systems
Mode                                     : 16
Format settings, Endianness              : Big
Codec ID                                 : A_DTS
Duration                                 : 1h 32mn
Bit rate mode                            : Constant
Bit rate                                 : 768 Kbps
Channel(s)                               : 2 channels
Channel positions                        : Front: L R
Sampling rate                            : 48.0 KHz
Bit depth                                : 24 bits
Compression mode                         : Lossy
Stream size                              : 510 MiB (15%)
Language                                 : German
Default                                  : Yes
Forced                                   : No


Download:
Share Online Share OnlineShare OnlineShare Online
 

Kommentare